extratorrent - A Fan Made Alternative Login   |   Register
Important Information
Registrations are open now
-------------------------------------

Please click here to register with Extratorrent2 to recieve latest updates, add bookmarks and to post comments.

Friends
Friends

1) ProxyFix

Extratorrent2 > Categories > Movies > Padman 2018 Hindi 1080p BluRay DD 5.1 x264 ESub [MW] torrent


Browse Movies torrents

Padman 2018 Hindi 1080p BluRay DD 5.1 x264 ESub [MW] torrent


Download torrent: Download Padman 2018 Hindi 1080p BluRay DD 5.1 x264 ESub [MW] torrent Magnet link Bookmark Torrent: Padman 2018 Hindi 1080p BluRay DD 5.1 x264 ESub [MW]   Padman 2018 Hindi 1080p BluRay DD 5.1 x264 ESub [MW] torrent
Info hash: 92EDC6C872F4134BCBF122D540A283C0D098340A
Category: Categories > Movies
Trackers:
View all torrent trackers >
Health:
 seeds: 11 ,  leechers: 15 |  Update >
Torrent language: Hindi Hindi
Total Size: 2.5 GB
Files List:
1    View torrent files >
Uploader:
moviezworldz
Torrent added: August 16, 2018, 3:31 pm
Tags: Biography, Drama
Users rating: ---, not rated. please login to rate.

Download Padman 2018 Hindi 1080p BluRay DD 5.1 x264 ESub [MW] torrent



Torrent Description





General
Format : Matroska
Format version : Version 4 / Version 2
File size : 2.46 GiB
Duration : 2 h 16 min
Overall bit rate : 2 580 kb/s

Video
ID : 1
Format : AVC
Format/Info : Advanced Video Codec
Format profile : Hi
Format settings : CABAC / 4 Ref Frames
Format settings, CABAC : Yes
Format settings, RefFrames : 4 frames
Codec ID : V_MPEG4/ISO/AVC
Duration : 2 h 16 min
Bit rate : 2 200 kb/s
Width : 1 920 pixels
Height : 816 pixels
Display aspect ratio : 2.35:1
Frame rate mode : Constant
Frame rate : 24.000 FPS
Color space : YUV
Chroma subsampling : 4:2:0
Bit depth : 8 bits
Scan type : Progressive
Bits/(Pixel*Frame) : 0.059
Stream size : 2.08 GiB (85%)
Writing library : x264 core 155 r2901 7d0ff22
Default : Yes
Forced : No

Audio
ID : 2
Format : AC-3
Format/Info : Audio Coding 3
Codec ID : A_AC3
Duration : 2 h 16 min
Bit rate mode : Constant
Bit rate : 384 kb/s
Channel(s) : 6 channels
Channel positions : Front: L C R, Side: L R, LFE
Sampling rate : 48.0 kHz
Frame rate : 31.250 FPS (1536 SPF)
Bit depth : 16 bits
Compression mode : Lossy
Stream size : 375 MiB (15%)
Language : Hindi
Service kind : Complete Main
Default : Yes
Forced : No

Text
ID : 3
Format : PGS
Muxing mode : zlib
Codec ID : S_HDMV/PGS
Duration : 2 h 9 min
Bit rate : 13.4 kb/s
Count of elements : 3927
Stream size : 12.4 MiB (0%)
Language : English
Default : Yes
Forced : No


Click To Enlarge Image








Download Padman 2018 Hindi 1080p BluRay DD 5.1 x264 ESub [MW] torrent


Related Torrents


Comments   (please login to add your comment!)

fever     ncis     123     subtitle     castles     storm     parker     nhdtb     client     686     bucket     fest     seduce     student     six     shewillcheat     cbt     seduces     998     pornstarplatinum     fuck     3645782     rileyreid     mpa     


Home - Browse Torrents

Made with love by an Extratorrent Fan!